Kino Video Editor
 
  Kino / dvgrab
Latest News
Download
Features
Requirements
Screen Shots
  Support
User Guide
HOWTOs
FAQ
Mailing Lists
Contributed Code
  Development
Project Vision
Developer Guide
Source Code
Current Developers
Report a Bug
  Community
Success Stories
Discussion
 

I have closed the forums to new postings because there was not enough discussion, I answered nearly all the questions, and I no longer work on Kino. Please use the forums provided by your Linux distribution. Meanwhile, I will leave this open in read-only mode to serve as a knowledge base.


Subject: "H.264 MP4 Single Pass (FFMPEG) doesn't work" Previous topic | Next topic
Printer-friendly copy
Top Linux Digital Video Kino Topic #3625
Show all folders | View messages in linear mode

ninseiMon Mar-08-10 11:59 AM
Member since Mar 08th 2010
4 posts
Click to send email to this author Click to send private message to this author Click to view this author's profile Click to add this author to your buddy list
#3625, "H.264 MP4 Single Pass (FFMPEG) doesn't work"


          

Hi. on Kino 1.3.4 i tried the stock export scripts and the lates ones from the CVS repo and I get this error:

FFmpeg version SVN-r20372, Copyright (c) 2000-2009 Fabrice Bellard, et al.
built on Nov 7 2009 10:57:27 with gcc 4.4.2 20091027 (Red Hat 4.4.2-7)
configuration: --prefix=/usr --bindir=/usr/bin --datadir=/usr/share/ffmpeg --incdir=/usr/include/ffmpeg --libdir=/usr/lib64 --mandir=/usr/share/man --arch=x86_64 --extra-cflags='-O2 -g -pipe -Wall -Wp,-D_FORTIFY_SOURCE=2 -fexceptions -fstack-protector --param=ssp-buffer-size=4 -m64 -mtune=generic' --extra-version=rpmfusion --enable-bzlib --enable-libdc1394 --enable-libdirac --enable-libfaad --enable-libgsm --enable-libmp3lame --enable-libopenjpeg --enable-libschroedinger --enable-libspeex --enable-libtheora --enable-libvorbis --enable-libx264 --enable-libxvid --enable-x11grab --enable-avfilter --enable-avfilter-lavf --enable-postproc --enable-pthreads --disable-static --enable-shared --enable-gpl --disable-debug --disable-stripping --shlibdir=/usr/lib64 --enable-runtime-cpudetect
libavutil 50. 3. 0 / 50. 3. 0
libavcodec 52.37. 1 / 52.37. 1
libavformat 52.39. 2 / 52.39. 2
libavdevice 52. 2. 0 / 52. 2. 0
libavfilter 1. 4. 1 / 1. 4. 1
libswscale 0. 7. 1 / 0. 7. 1
libpostproc 51. 2. 0 / 51. 2. 0
Input #0, dv, from 'pipe:':
Duration: N/A, start: 0.000000, bitrate: 28771 kb/s
Stream #0.0: Video: dvvideo, yuv411p, 720x480, 28771 kb/s, PAR 40:33 DAR 20:11, 29.97 tbr, 29.97 tbn, 29.97 tbc
Stream #0.1: Audio: pcm_s16le, 48000 Hz, 2 channels, s16, 1536 kb/s
interlace + direct=temporal is not implemented
broken ffmpeg default settings detected
use an encoding preset (vpre)
Output #0, mp4, to '/tmp/test.mp4':
Stream #0.0: Video: libx264 (hq), yuv420p, 720x480 , q=2-31, 200 kb/s, 90k tbn, 29.97 tbc
Stream #0.1: Audio: aac, 48000 Hz, 2 channels, s16, 192 kb/s
Metadata
copyright :
comment :
author :
title :
Stream mapping:
Stream #0.0 -> #0.0
Stream #0.1 -> #0.1
Error while opening encoder for output stream #0.0 - maybe incorrect parameters such as bit_rate, rate, width or height

  

IP Printer Friendly copy | Reply | Reply with quote | Top
Top Linux Digital Video Kino Topic #3625 Previous topic | Next topic
Powered by DCForum+ Version 1.1
Copyright 1997-2002 DCScripts.com